MTS reálné 25fps má 50; ffmpeg také zdvojuje

Sekce pro řešení potíží s přehráváním multimédií (kodeky, přehrávače..) nebo s vypalováním...

Moderátor: Mods_senior

Uživatelský avatar
Herda
Level 2.5
Level 2.5
Příspěvky: 357
Registrován: únor 16
Pohlaví: Muž

MTS reálné 25fps má 50; ffmpeg také zdvojuje

Příspěvekod Herda » 31 kvě 2016 17:56

Mám dotaz k MTS AVCHD souborům natočených z panasonicu. Kterej ingemot vymyslel, že 25fps video se bude ukládat v 50fps (ve skutečnosti ty snímky nejsou uplně zdvojené, ale tak nějak se to tváří, že má 50), například potplayer ukazuje 50(24.86)->25.04 a skok po snímcích (F) evidentně funguje na 25 fps (avšak frame counter se po posunu o 10 snímků(10 x zmáčknuto F) posune o 20 snímků)
Ale například Sony Vegas 13 pro se lapí do této pasti a myslí si bláhově, že fakt má 50 fps.
V potplayeru u toho mTS souboru vidím frame mode: frame doubling (u Video), jak to v ffmpegu tento atribut odstraním?

Dál by mě zajímalo, jak ffmpeg dělá magii, že při převodu do MOV,MP4 snímky mají 25fps. (při copy)
A co mě dostalo nejvíc, při zpětné konverzi do MTS se FPS opět zdvojí z 25 na 50.

Taky by mě zajímalo, co u souboru (metadata v ffmpeg) je
Side data:
unknown side data type 7 (4 bytes)

PARDON, důležitá informace: ffprobe na soubor

Kód: Vybrat vše

Input #0, mpegts, from '00000.MTS':
  Duration: 00:00:05.31, start: 0.888889, bitrate: 16303 kb/s
  Program 1
    Stream #0:0[0x1011]: Video: h264 (High) (HDMV / 0x564D4448), yuv420p, 1280x720 [SAR 1:1 DAR 16:9], 50 fps, 25 tbr, 90k tbn, 100 tbc
    Stream #0:1[0x1100]: Audio: ac3 (AC-3 / 0x332D4341), 48000 Hz, stereo, fltp, 192 kb/s
    Stream #0:2[0x1200]: Subtitle: hdmv_pgs_subtitle ([144][0][0][0] / 0x0090), (titulky naho-no, akorát ukazjí datum pořízení, proč nejdou v menu foťáku vypnout)
1280x720



Reklama
petr22
Guru Level 15
Guru Level 15
Příspěvky: 39915
Registrován: únor 12
Pohlaví: Muž

Re: MTS reálné 25fps má 50; ffmpeg také zdvojuje

Příspěvekod petr22 » 31 kvě 2016 18:02

Ve skutecnosti to nahrava tak, ze snimky jsou zdvojene, takze to video ma skutecne 50 fps a vzdy dva snimky jsou stejne.

A neres pro a jak - je to tak definovano ve standardu AVCHD.

Dekoder ktery s tim pocita to samozrejmne dokaze dekodovat jako 25 fps.

Nicmene takhle video nahravaji Panasoniky nekdy z let 2010-2012, cokoliv novejsiho podporuje 50 fps progresivne.


Zpět na “Multimédia (filmy, hudba, CDs/DVDs)”

Kdo je online

Uživatelé prohlížející si toto fórum: CommonCrawl [Bot] a 1 host